<?xml version="1.0" standalone="no"?>
<!DOCTYPE svg PUBLIC "-//W3C//DTD SVG 1.1//EN" "http://www.w3.org/Graphics/SVG/1.1/DTD/svg11.dtd" >
<svg xmlns="http://www.w3.org/2000/svg">
<metadata>Generated by IcoMoon</metadata>
<defs>
<font id="custom" horiz-adv-x="1024">
<font-face units-per-em="1024" ascent="960" descent="-64" />
<missing-glyph horiz-adv-x="1024" />
<glyph unicode="&#x20;" horiz-adv-x="512" d="" />
<glyph unicode="&#xe900;" glyph-name="fill-close" d="M99.277-85.334l-99.278 99.278 412.723 412.723-412.723 412.723 99.278 99.278 412.723-412.723 412.723 412.723 99.278-99.278-412.723-412.723 412.723-412.723-99.278-99.278-412.723 412.723-412.723-412.723z" />
<glyph unicode="&#xe901;" glyph-name="outline-added" d="M438.857-85.333v438.857h-438.857v146.286h438.857v438.857h146.286v-438.857h438.857v-146.286h-438.857v-438.857h-146.286z" />
<glyph unicode="&#xe902;" glyph-name="outline-cart" d="M819.2 119.467c27.156 0 53.202-10.788 72.408-29.992s29.992-45.25 29.992-72.408c0-27.156-10.788-53.202-29.992-72.408s-45.25-29.992-72.408-29.992c-27.156 0-53.202 10.788-72.408 29.992s-29.992 45.25-29.992 72.408c0 56.832 45.568 102.4 102.4 102.4zM0 938.667h167.424l48.128-102.4h757.248c13.578 0 26.604-5.396 36.204-14.996s14.996-22.626 14.996-36.204c0-8.704-2.56-17.408-6.144-25.6l-183.296-331.264c-17.408-31.232-51.2-52.736-89.6-52.736h-381.44l-46.080-83.456-1.536-6.144c0-3.394 1.346-6.65 3.748-9.052s5.658-3.748 9.052-3.748h592.896v-102.4h-614.4c-27.156 0-53.202 10.788-72.408 29.992s-29.992 45.25-29.992 72.408c0 17.92 4.608 34.816 12.288 49.152l69.632 125.44-184.32 388.608h-102.4v102.4zM307.2 119.467c27.156 0 53.202-10.788 72.408-29.992s29.992-45.25 29.992-72.408c0-27.156-10.788-53.202-29.992-72.408s-45.25-29.992-72.408-29.992c-27.156 0-53.202 10.788-72.408 29.992s-29.992 45.25-29.992 72.408c0 56.832 45.568 102.4 102.4 102.4zM768 477.867l142.336 256h-647.168l120.832-256h384z" />
<glyph unicode="&#xe903;" glyph-name="outline-check" d="M352.343 68.267l-352.343 341.621 67.638 65.582 284.705-276.043 604.021 585.639 67.636-65.582-671.655-651.217z" />
<glyph unicode="&#xe904;" glyph-name="outline-checked" d="M355.4-85.333l-87.736 158.254-175.54 38.942 20.352 179.088-112.476 135.716 112.476 134.554-20.352 179.088 175.54 38.942 87.736 159.416 156.6-75.638 156.6 75.638 88.848-159.416 174.428-38.942-20.352-179.088 112.476-134.554-112.476-135.716 20.352-179.088-174.428-38.942-88.848-158.254-156.6 75.638-156.6-75.638zM392.054 26.375l119.946 53.53 124.39-53.53 74.414 117.53 131.052 36.070-13.328 138.476 89.964 108.406-89.964 110.714 13.328 139.504-130.76 32.302-78.040 117.58-121.058-53.53-124.39 53.53-74.040-117.612-131.426-32.308 13.26-139.54-89.896-110.74 89.896-108.432-13.26-141.844 130.708-32.348 79.202-117.76zM464.24 260.267l264.33 274.616-59.97 58.184-204.36-211.784-105.508 117.53-62.192-64 167.7-174.546z" />
<glyph unicode="&#xe905;" glyph-name="outline-chevron-down" d="M0.001 646.831l72.958 71.677 439.039-439.039 439.044 439.039 72.958-71.677-512.004-512.004-511.996 512.004z" />
<glyph unicode="&#xe906;" glyph-name="outline-chevron-left" d="M291.836-85.332l-71.677 72.958 439.039 439.039-439.039 439.044 71.677 72.958 512.004-512.004-512.004-511.996z" />
<glyph unicode="&#xe907;" glyph-name="outline-chevron-up" d="M1023.999 206.503l-72.958-71.677-439.039 439.039-439.044-439.039-72.958 71.677 512.004 512.004 511.996-512.004z" />
<glyph unicode="&#xe908;" glyph-name="outline-copy" d="M943.16 54.305h-700.636c-21.556 0-40.418 6.978-56.586 20.946-16.168 13.962-24.254 30.254-24.254 48.87v744.73c0 18.616 8.084 34.908 24.254 48.87s35.032 20.946 56.586 20.946h468.884l312.592-269.962v-544.584c0-18.616-8.084-34.908-24.254-48.87-16.168-13.968-35.032-20.946-56.586-20.946zM670.992 638.451v230.4h-428.468v-744.73h700.636v514.33h-272.168zM80.84-85.333c-21.556 0-40.418 6.984-56.586 20.946s-24.254 30.254-24.254 48.87v720.292h80.84v-720.292h670.992v-69.816h-670.992z" />
<glyph unicode="&#xe909;" glyph-name="outline-date-check" d="M453.566 103.43l-184.008 181.36 63.409 62.918 120.6-118.436 232.497 230.707 62.165-64.156-294.662-292.391zM135.285-85.333c-23.81 0-44.89 9.104-63.238 27.315-18.348 18.205-27.523 39.122-27.523 62.749v772.317c0 23.623 9.176 44.544 27.523 62.749 18.348 18.209 39.428 27.313 63.238 27.313h60.918v71.556h96.977v-71.556h437.639v71.556h96.977v-71.556h60.918c23.81 0 44.89-9.104 63.238-27.313 18.348-18.205 27.523-39.125 27.523-62.749v-772.317c0-23.628-9.176-44.544-27.523-62.749-18.348-18.209-39.428-27.315-63.238-27.315h-753.432zM135.285 4.729h753.432v545.31h-753.432v-545.31zM135.285 640.102h753.432v136.944h-753.432v-136.944z" />
<glyph unicode="&#xe90a;" glyph-name="outline-email" d="M1024 733.867c0 56.32-46.080 102.4-102.4 102.4h-819.2c-56.32 0-102.4-46.080-102.4-102.4v-614.4c0-56.32 46.080-102.4 102.4-102.4h819.2c56.32 0 102.4 46.080 102.4 102.4v614.4zM921.6 733.867l-409.6-256-409.6 256h819.2zM921.6 119.467h-819.2v512l409.6-256 409.6 256v-512z" />
<glyph unicode="&#xe90b;" glyph-name="outline-history" d="M507.733-85.327c-141.275 0-261.217 50.018-359.823 150.045s-147.911 221.153-147.911 363.375h85.336c0-118.518 40.77-219.499 122.312-302.935 81.536-83.436 181.569-125.154 300.087-125.154 120.412 0 222.341 42.188 305.775 126.575 83.436 84.382 125.154 186.781 125.154 307.199 0 117.57-42.188 216.887-126.575 297.953-84.382 81.070-185.835 121.6-304.353 121.6-64.476 0-124.918-14.694-181.335-44.088s-105.482-68.264-147.199-116.624h149.335v-85.33h-297.245v295.823h85.336v-150.757c49.3 57.836 107.852 103.348 175.641 136.535 67.794 33.182 139.617 49.776 215.469 49.776 71.112 0 137.953-13.276 200.529-39.824 62.582-26.548 117.336-62.812 164.269-108.8 46.93-45.982 83.912-99.794 110.93-161.423 27.024-61.63 40.536-127.999 40.536-199.105 0-71.112-13.512-137.957-40.536-200.535-27.018-62.576-64-117.094-110.93-163.557-46.936-46.458-101.688-83.2-164.269-110.218-62.576-27.024-129.417-40.536-200.529-40.536zM689.772 194.848l-219.023 216.175v304.357h85.336v-268.799l194.845-190.575-61.158-61.158z" />
<glyph unicode="&#xe90c;" glyph-name="outline-more" d="M511.774-85.333c-21.182 0-39.24 7.542-54.174 22.626s-22.4 33.218-22.4 54.4c0 21.182 7.542 39.24 22.626 54.174s33.218 22.4 54.4 22.4c21.182 0 39.24-7.542 54.174-22.626s22.4-33.218 22.4-54.4c0-21.182-7.542-39.24-22.626-54.174s-33.218-22.4-54.4-22.4zM511.774 349.867c-21.182 0-39.24 7.542-54.174 22.626s-22.4 33.218-22.4 54.4c0 21.182 7.542 39.24 22.626 54.174s33.218 22.4 54.4 22.4c21.182 0 39.24-7.542 54.174-22.626s22.4-33.218 22.4-54.4c0-21.182-7.542-39.24-22.626-54.174s-33.218-22.4-54.4-22.4zM511.774 785.067c-21.182 0-39.24 7.542-54.174 22.626s-22.4 33.218-22.4 54.4c0 21.182 7.542 39.24 22.626 54.174s33.218 22.4 54.4 22.4c21.182 0 39.24-7.542 54.174-22.626s22.4-33.218 22.4-54.4c0-21.182-7.542-39.24-22.626-54.174s-33.218-22.4-54.4-22.4z" />
<glyph unicode="&#xe90d;" glyph-name="outline-search" d="M961.42-85.332l-374.046 374.046c-28.442-24.652-61.608-43.852-99.496-57.6-37.888-13.752-78.202-20.624-120.944-20.624-102.554 0-189.348 35.554-260.382 106.664s-106.552 156.918-106.552 257.424c0 100.506 35.554 186.312 106.664 257.424s157.158 106.664 258.136 106.664c100.976 0 186.782-35.554 257.424-106.664 70.636-71.112 105.954-156.99 105.954-257.638 0-40.628-6.636-79.902-19.912-117.832-13.272-37.924-33.182-73.482-59.73-106.664l375.464-372.624-62.576-62.576zM365.508 295.822c77.036 0 142.52 27.264 196.444 81.782s80.89 120.176 80.89 196.976c0 76.8-26.968 142.458-80.89 196.976s-119.408 81.776-196.444 81.776c-77.83 0-143.98-27.258-198.462-81.776-54.476-54.518-81.716-120.176-81.716-196.976s27.238-142.458 81.716-196.976c54.482-54.518 120.632-81.782 198.462-81.782z" />
<glyph unicode="&#xe90e;" glyph-name="outline-search-menu" d="M0 93.867v76.8h512v-76.8h-512zM0 362.667v76.8h256v-76.8h-256zM0 631.467v76.8h256v-76.8h-256zM970.24 93.867l-204.8 204.8c-22.184-17.064-46.080-29.864-71.68-38.4s-52.056-12.8-79.36-12.8c-70.824 0-131.2 24.96-181.12 74.88s-74.88 110.296-74.88 181.12c0 70.824 24.96 131.2 74.88 181.12s110.296 74.88 181.12 74.88c70.824 0 131.2-24.96 181.12-74.88s74.88-110.296 74.88-181.12c0-27.304-4.264-53.76-12.8-79.36s-21.336-49.496-38.4-71.68l204.8-204.8-53.76-53.76zM614.098 324.267c49.694 0 92.038 17.392 127.022 52.178s52.48 77.026 52.48 126.72c0 49.694-17.392 92.038-52.178 127.022s-77.026 52.48-126.72 52.48c-49.694 0-92.038-17.392-127.022-52.178s-52.48-77.026-52.48-126.72c0-49.694 17.392-92.038 52.178-127.022s77.026-52.48 126.72-52.48z" />
<glyph unicode="&#xe90f;" glyph-name="outline-setting" d="M394.24-85.333l-25.6 161.28c-16.216 5.976-33.28 14.080-51.2 24.32s-33.704 20.904-47.36 32l-151.040-69.12-119.040 209.92 138.24 101.12c-1.704 7.68-2.776 16.424-3.2 26.24s-0.64 18.56-0.64 26.24c0 7.68 0.216 16.424 0.64 26.24s1.496 18.56 3.2 26.24l-138.24 101.12 119.040 209.92 151.040-69.12c13.656 11.096 29.44 21.76 47.36 32s34.984 17.92 51.2 23.040l25.6 162.56h235.52l25.6-161.28c16.216-5.976 33.496-13.864 51.84-23.68s33.92-20.696 46.72-32.64l151.040 69.12 119.040-209.92-138.24-98.56c1.704-8.536 2.776-17.704 3.2-27.52s0.64-18.984 0.64-27.52c0-8.536-0.216-17.496-0.64-26.88s-1.496-18.344-3.2-26.88l138.24-99.84-119.040-209.92-151.040 69.12c-13.656-11.096-29.224-21.976-46.72-32.64s-34.776-18.56-51.84-23.68l-25.6-161.28h-235.52zM512 260.267c46.080 0 85.336 16.216 117.76 48.64s48.64 71.68 48.64 117.76c0 46.080-16.216 85.336-48.64 117.76s-71.68 48.64-117.76 48.64c-46.080 0-85.336-16.216-117.76-48.64s-48.64-71.68-48.64-117.76c0-46.080 16.216-85.336 48.64-117.76s71.68-48.64 117.76-48.64zM512 337.067c-24.744 0-45.864 8.744-63.36 26.24s-26.24 38.616-26.24 63.36c0 24.744 8.744 45.864 26.24 63.36s38.616 26.24 63.36 26.24c24.744 0 45.864-8.744 63.36-26.24s26.24-38.616 26.24-63.36c0-24.744-8.744-45.864-26.24-63.36s-38.616-26.24-63.36-26.24zM455.68-8.533h112.64l17.92 143.36c28.16 6.824 54.824 17.496 80 32s48 32 68.48 52.48l135.68-58.88 51.2 92.16-120.32 88.32c3.416 14.504 6.184 28.8 8.32 42.88s3.2 28.376 3.2 42.88c0 14.504-0.856 28.8-2.56 42.88s-4.696 28.376-8.96 42.88l120.32 88.32-51.2 92.16-135.68-58.88c-19.624 22.184-41.816 40.744-66.56 55.68s-52.056 24.536-81.92 28.8l-17.92 143.36h-112.64l-17.92-143.36c-29.016-5.976-56.104-16.216-81.28-30.72s-47.576-32.424-67.2-53.76l-135.68 58.88-51.2-92.16 120.32-88.32c-3.416-14.504-6.184-28.8-8.32-42.88s-3.2-28.376-3.2-42.88c0-14.504 1.064-28.8 3.2-42.88s4.904-28.376 8.32-42.88l-120.32-88.32 51.2-92.16 135.68 58.88c20.48-20.48 43.304-37.976 68.48-52.48s51.84-25.176 80-32l17.92-143.36z" />
<glyph unicode="&#xe910;" glyph-name="outline-sync" d="M11.2-85.333v96h208l-24 19.2c-68.27 54.4-117.87 113.6-148.8 177.6s-46.4 135.47-46.4 214.4c0 113.070 33.33 214.67 100 304.8s154.4 152.27 263.2 186.4v-99.2c-80-30.93-144.53-82.4-193.6-154.4s-73.6-151.2-73.6-237.6c0-67.2 12.53-125.6 37.6-175.2s58.93-92.53 101.6-128.8l48-33.6v198.4h96v-368h-368zM662.4-61.333v100.8c81.070 30.93 145.6 82.4 193.6 154.4s72 151.2 72 237.6c0 51.2-12.53 103.2-37.6 156s-57.87 99.47-98.4 140l-46.4 41.6v-198.4h-96v368h368v-96h-209.6l24-22.4c64-59.73 112-123.73 144-192s48-133.87 48-196.8c0-113.070-33.070-214.93-99.2-305.6s-153.6-153.070-262.4-187.2z" />
<glyph unicode="&#xe911;" glyph-name="outline-trophy" d="M274.105-85.333v106.874h187.070v176.030c-46.68 10.91-88.104 32.332-124.278 64.262-36.168 31.934-62.064 71.224-77.686 117.872-72.012 2.114-133.212 29.306-183.614 81.572-50.396 52.27-75.596 116.158-75.596 191.662v59.362c0 30.346 9.846 55.874 29.542 76.58 19.692 20.71 43.97 31.064 72.838 31.064h133.452v118.722h553.062v-118.722h133.452c28.154 0 52.136-10.352 71.946-31.064 19.804-20.706 29.706-46.234 29.706-76.58v-59.362c0-75.504-25.2-139.392-75.596-191.662-50.402-52.264-111.6-79.458-183.614-81.572-15.622-46.648-41.518-85.94-77.686-117.872-36.172-31.928-77.598-53.35-124.278-64.262v-176.030h187.070v-106.874h-475.792zM235.833 488.347v223.954h-133.452v-59.362c0-40.474 12.616-75.776 37.852-105.908s57.104-49.694 95.6-58.686zM512.001 298.119c48.762 0 90.040 17.986 123.828 53.964 33.792 35.974 50.688 79.596 50.688 130.868v348.078h-349.030v-348.078c0-51.272 16.896-94.894 50.688-130.868 33.786-35.978 75.064-53.964 123.828-53.964zM788.895 488.347c38.010 8.99 69.754 28.554 95.238 58.686 25.478 30.132 38.216 65.434 38.216 105.908v59.362h-133.452v-223.954z" />
<glyph unicode="&#xe912;" glyph-name="outline-whatsapp" d="M874.774 789.67c-47.176 47.416-103.368 85.012-165.3 110.592s-128.358 38.634-195.416 38.4c-280.954 0-509.942-227.834-509.942-507.386 0-89.6 23.67-176.64 67.922-253.44l-72.038-263.168 270.152 70.656c74.614-40.448 158.49-61.952 243.906-61.952 280.954 0 509.942 227.84 509.942 507.392 0 135.68-53.002 263.168-149.228 358.906zM514.060 9.388c-76.154 0-150.768 20.48-216.12 58.88l-15.436 9.216-160.548-41.984 42.712 155.648-10.292 15.872c-42.312 67.226-64.778 144.932-64.84 224.256 0 232.448 190.392 421.882 424.008 421.882 113.208 0 219.724-44.032 299.484-123.898 39.49-39.116 70.79-85.642 92.078-136.884 21.288-51.236 32.144-106.168 31.934-161.612 1.030-232.448-189.364-421.376-422.978-421.376zM746.646 324.78c-12.862 6.144-75.642 36.864-86.964 41.472-11.832 4.096-20.066 6.144-28.816-6.144-8.744-12.8-32.932-41.472-40.136-49.664-7.204-8.704-14.924-9.728-27.786-3.072-12.866 6.144-54.032 19.968-102.4 62.976-38.078 33.792-63.294 75.264-71.014 88.064-7.204 12.8-1.030 19.456 5.662 26.112 5.658 5.632 12.862 14.848 19.042 22.016 6.174 7.168 8.744 12.8 12.862 20.992 4.116 8.704 2.058 15.872-1.030 22.016s-28.816 68.608-39.106 94.208c-10.292 24.576-21.1 21.504-28.816 22.016h-24.698c-8.75 0-22.128-3.072-33.966-15.872-11.32-12.8-44.252-43.52-44.252-105.984s45.798-122.88 51.974-131.072c6.174-8.704 90.050-136.704 217.666-191.488 30.356-13.312 54.026-20.992 72.55-26.624 30.362-9.728 58.148-8.192 80.276-5.12 24.698 3.584 75.642 30.72 85.934 60.416 10.804 29.696 10.804 54.784 7.204 60.416-3.604 5.632-11.32 8.192-24.186 14.336z" />
<glyph unicode="&#xe913;" glyph-name="fill-added" d="M438.857-85.333v438.857h-438.857v146.286h438.857v438.857h146.286v-438.857h438.857v-146.286h-438.857v-438.857h-146.286z" />
<glyph unicode="&#xe914;" glyph-name="fill-cart" d="M264.378-84.692c-25.448 0-47.147 9.063-65.089 27.186s-26.914 39.914-26.914 65.362c0 25.452 9.063 47.147 27.186 65.089 18.127 17.942 39.914 26.914 65.362 26.914 25.452 0 47.147-9.063 65.089-27.186 17.942-18.127 26.914-39.914 26.914-65.362 0-25.452-9.059-47.147-27.186-65.089-18.123-17.942-39.91-26.914-65.362-26.914zM777.019-84.692c-25.448 0-47.147 9.063-65.089 27.186s-26.914 39.914-26.914 65.362c0 25.452 9.063 47.147 27.186 65.089 18.127 17.942 39.914 26.914 65.362 26.914 25.452 0 47.147-9.063 65.089-27.186 17.942-18.127 26.914-39.914 26.914-65.362 0-25.452-9.059-47.147-27.186-65.089-18.123-17.942-39.91-26.914-65.362-26.914zM159.559 838.061h754.962c19.619 0 34.547-8.971 44.784-26.914s10.227-35.885-0.026-53.827l-173.016-311.429c-9.396-16.236-21.597-29.261-36.602-39.089-15.001-9.828-31.425-14.738-49.266-14.738h-388.325l-71.77-133.287h629.267v-76.896h-617.732c-35.885 0-61.727 11.959-77.537 35.885-15.804 23.926-15.589 50.84 0.641 80.741l82.023 151.229-194.804 412.676h-99.963v76.896h149.945l47.419-101.247z" />
<glyph unicode="&#xe915;" glyph-name="fill-check" d="M352.343 68.267l-352.343 341.621 67.636 65.582 284.707-276.043 604.021 585.639 67.636-65.582-671.655-651.217z" />
<glyph unicode="&#xe916;" glyph-name="fill-checked" d="M356.070-85.332l-88.432 158.474-175.708 37.79 19.778 179.2-111.708 136.536 111.708 135.316-19.778 179.2 175.708 37.79 88.432 159.692 155.93-75.582 155.93 75.582 89.6-159.692 174.54-37.79-19.778-179.2 111.708-135.316-111.708-136.536 19.778-179.2-174.54-37.79-89.6-158.474-155.93 75.582-155.93-75.582zM461.962 264.532l264.146 274.288-52.362 49.982-211.784-219.428-110.546 120.684-53.524-54.856 164.070-170.67z" />
<glyph unicode="&#xe917;" glyph-name="fill-chevron-down" d="M0.001 646.831l72.958 71.677 439.039-439.039 439.044 439.039 72.958-71.677-512.004-512.004-511.996 512.004z" />
<glyph unicode="&#xe918;" glyph-name="fill-chevron-left" d="M291.836-85.332l-71.677 72.958 439.039 439.039-439.039 439.044 71.677 72.958 512.004-512.004-512.004-511.996z" />
<glyph unicode="&#xe919;" glyph-name="fill-chevron-up" d="M1023.999 206.503l-72.958-71.677-439.039 439.039-439.044-439.039-72.958 71.677 512.004 512.004 511.996-512.004z" />
<glyph unicode="&#xe91a;" glyph-name="fill-copy" d="M80.84-85.333c-21.556 0-40.418 6.984-56.586 20.946s-24.254 30.254-24.254 48.87v720.292h80.84v-720.292h670.992v-69.816h-670.992zM242.524 54.305c-21.556 0-40.418 6.978-56.586 20.946-16.168 13.962-24.254 30.254-24.254 48.87v744.73c0 18.616 8.084 34.908 24.254 48.87s35.032 20.946 56.586 20.946h468.884l312.592-269.962v-544.584c0-18.616-8.084-34.908-24.254-48.87-16.168-13.968-35.032-20.946-56.586-20.946h-700.636zM670.992 638.451h272.168l-272.168 230.4v-230.4z" />
<glyph unicode="&#xe91b;" glyph-name="fill-date-check" d="M450.971 104.107l-179.2 175.358 54.539 53.76 124.661-120.32 238.93 235.52 54.539-55.038-293.47-289.28zM122.436-85.333c-20.779 0-38.957 7.68-54.539 23.040s-23.374 33.28-23.374 53.76v793.6c0 20.48 7.791 38.4 23.374 53.76s33.76 23.040 54.539 23.040h84.403v76.8h84.409v-76.8h441.504v76.8h84.409v-76.8h84.403c20.779 0 38.957-7.68 54.539-23.040s23.374-33.28 23.374-53.76v-793.6c0-20.48-7.791-38.4-23.374-53.76s-33.76-23.040-54.539-23.040h-779.13zM122.436-8.533h779.13v550.4h-779.13v-550.4z" />
<glyph unicode="&#xe91c;" glyph-name="fill-download" d="M96-85.333c-25.6 0-48 9.6-67.2 28.8s-28.8 41.6-28.8 67.2v228.802h96v-228.802h832v228.802h96v-228.802c0-25.6-9.6-48-28.8-67.2s-41.6-28.8-67.2-28.8h-832zM512 159.465l-308.798 308.802 68.798 68.798 192-192v593.602h96v-593.602l192 192 68.798-68.798-308.798-308.802z" />
<glyph unicode="&#xe91d;" glyph-name="fill-email" d="M76.8 17.067c-20.48 0-38.4 7.68-53.76 23.040s-23.040 33.28-23.040 53.76v665.6c0 20.48 7.68 38.4 23.040 53.76s33.28 23.040 53.76 23.040h870.4c20.48 0 38.4-7.68 53.76-23.040s23.040-33.28 23.040-53.76v-665.6c0-20.48-7.68-38.4-23.040-53.76s-33.28-23.040-53.76-23.040h-870.4zM512 403.627l435.2 285.44v70.4l-435.2-279.040-435.2 279.040v-70.4l435.2-285.44z" />
<glyph unicode="&#xe91e;" glyph-name="fill-history" d="M507.733-85.327c-141.275 0-261.217 50.018-359.823 150.045s-147.911 221.153-147.911 363.375h85.336c0-118.518 40.77-219.499 122.312-302.935 81.536-83.436 181.569-125.154 300.087-125.154 120.412 0 222.341 42.188 305.775 126.575 83.436 84.382 125.154 186.781 125.154 307.199 0 117.57-42.188 216.887-126.575 297.953-84.382 81.070-185.835 121.6-304.353 121.6-64.476 0-124.918-14.694-181.335-44.088s-105.482-68.264-147.199-116.624h149.335v-85.33h-297.245v295.823h85.336v-150.757c49.3 57.836 107.852 103.348 175.641 136.535 67.794 33.182 139.617 49.776 215.469 49.776 71.112 0 137.953-13.276 200.529-39.824 62.582-26.548 117.336-62.812 164.269-108.8 46.93-45.982 83.912-99.794 110.93-161.423 27.024-61.63 40.536-127.999 40.536-199.105 0-71.112-13.512-137.957-40.536-200.535-27.018-62.576-64-117.094-110.93-163.557-46.936-46.458-101.688-83.2-164.269-110.218-62.576-27.024-129.417-40.536-200.529-40.536zM689.772 194.848l-219.023 216.175v304.357h85.336v-268.799l194.845-190.575-61.158-61.158z" />
<glyph unicode="&#xe91f;" glyph-name="fill-more" d="M511.774-85.333c-21.182 0-39.24 7.542-54.174 22.626s-22.4 33.218-22.4 54.4c0 21.182 7.542 39.24 22.626 54.174s33.218 22.4 54.4 22.4c21.182 0 39.24-7.542 54.174-22.626s22.4-33.218 22.4-54.4c0-21.182-7.542-39.24-22.626-54.174s-33.218-22.4-54.4-22.4zM511.774 349.867c-21.182 0-39.24 7.542-54.174 22.626s-22.4 33.218-22.4 54.4c0 21.182 7.542 39.24 22.626 54.174s33.218 22.4 54.4 22.4c21.182 0 39.24-7.542 54.174-22.626s22.4-33.218 22.4-54.4c0-21.182-7.542-39.24-22.626-54.174s-33.218-22.4-54.4-22.4zM511.774 785.067c-21.182 0-39.24 7.542-54.174 22.626s-22.4 33.218-22.4 54.4c0 21.182 7.542 39.24 22.626 54.174s33.218 22.4 54.4 22.4c21.182 0 39.24-7.542 54.174-22.626s22.4-33.218 22.4-54.4c0-21.182-7.542-39.24-22.626-54.174s-33.218-22.4-54.4-22.4z" />
<glyph unicode="&#xe920;" glyph-name="fill-search" d="M961.42-85.332l-374.046 374.046c-28.442-24.652-61.608-43.852-99.496-57.6-37.888-13.752-78.202-20.624-120.944-20.624-102.554 0-189.348 35.554-260.382 106.664s-106.552 156.918-106.552 257.424c0 100.506 35.554 186.312 106.664 257.424s157.158 106.664 258.136 106.664c100.976 0 186.782-35.554 257.424-106.664 70.636-71.112 105.954-156.99 105.954-257.638 0-40.628-6.636-79.902-19.912-117.832-13.272-37.924-33.182-73.482-59.73-106.664l375.464-372.624-62.576-62.576zM365.508 295.822c77.036 0 142.52 27.264 196.444 81.782s80.89 120.176 80.89 196.976c0 76.8-26.968 142.458-80.89 196.976s-119.408 81.776-196.444 81.776c-77.83 0-143.98-27.258-198.462-81.776-54.476-54.518-81.716-120.176-81.716-196.976s27.238-142.458 81.716-196.976c54.482-54.518 120.632-81.782 198.462-81.782z" />
<glyph unicode="&#xe921;" glyph-name="fill-search-menu" d="M0 93.867v76.8h512v-76.8h-512zM0 362.667v76.8h256v-76.8h-256zM0 631.467v76.8h256v-76.8h-256zM970.24 93.867l-204.8 204.8c-22.184-17.064-46.080-29.864-71.68-38.4s-52.056-12.8-79.36-12.8c-70.824 0-131.2 24.96-181.12 74.88s-74.88 110.296-74.88 181.12c0 70.824 24.96 131.2 74.88 181.12s110.296 74.88 181.12 74.88c70.824 0 131.2-24.96 181.12-74.88s74.88-110.296 74.88-181.12c0-27.304-4.264-53.76-12.8-79.36s-21.336-49.496-38.4-71.68l204.8-204.8-53.76-53.76zM614.098 324.267c49.694 0 92.038 17.392 127.022 52.178s52.48 77.026 52.48 126.72c0 49.694-17.392 92.038-52.178 127.022s-77.026 52.48-126.72 52.48c-49.694 0-92.038-17.392-127.022-52.178s-52.48-77.026-52.48-126.72c0-49.694 17.392-92.038 52.178-127.022s77.026-52.48 126.72-52.48z" />
<glyph unicode="&#xe922;" glyph-name="fill-setting" d="M394.24-85.333l-25.6 161.28c-16.216 5.976-33.28 14.080-51.2 24.32s-33.704 20.904-47.36 32l-151.040-69.12-119.040 209.92 138.24 101.12c-1.704 7.68-2.776 16.424-3.2 26.24s-0.64 18.56-0.64 26.24c0 7.68 0.216 16.424 0.64 26.24s1.496 18.56 3.2 26.24l-138.24 101.12 119.040 209.92 151.040-69.12c13.656 11.096 29.44 21.76 47.36 32s34.984 17.92 51.2 23.040l25.6 162.56h235.52l25.6-161.28c16.216-5.976 33.496-13.864 51.84-23.68s33.92-20.696 46.72-32.64l151.040 69.12 119.040-209.92-138.24-98.56c1.704-8.536 2.776-17.704 3.2-27.52s0.64-18.984 0.64-27.52c0-8.536-0.216-17.496-0.64-26.88s-1.496-18.344-3.2-26.88l138.24-99.84-119.040-209.92-151.040 69.12c-13.656-11.096-29.224-21.976-46.72-32.64s-34.776-18.56-51.84-23.68l-25.6-161.28h-235.52zM512 260.267c46.080 0 85.336 16.216 117.76 48.64s48.64 71.68 48.64 117.76c0 46.080-16.216 85.336-48.64 117.76s-71.68 48.64-117.76 48.64c-46.080 0-85.336-16.216-117.76-48.64s-48.64-71.68-48.64-117.76c0-46.080 16.216-85.336 48.64-117.76s71.68-48.64 117.76-48.64z" />
<glyph unicode="&#xe923;" glyph-name="fill-sync" d="M11.2-85.333v96h208l-24 19.2c-68.27 54.4-117.87 113.6-148.8 177.6s-46.4 135.47-46.4 214.4c0 113.070 33.33 214.67 100 304.8s154.4 152.27 263.2 186.4v-99.2c-80-30.93-144.53-82.4-193.6-154.4s-73.6-151.2-73.6-237.6c0-67.2 12.53-125.6 37.6-175.2s58.93-92.53 101.6-128.8l48-33.6v198.4h96v-368h-368zM662.4-61.333v100.8c81.070 30.93 145.6 82.4 193.6 154.4s72 151.2 72 237.6c0 51.2-12.53 103.2-37.6 156s-57.87 99.47-98.4 140l-46.4 41.6v-198.4h-96v368h368v-96h-209.6l24-22.4c64-59.73 112-123.73 144-192s48-133.87 48-196.8c0-113.070-33.070-214.93-99.2-305.6s-153.6-153.070-262.4-187.2z" />
<glyph unicode="&#xe924;" glyph-name="fill-trophy" d="M253.157-59.734v81.069h216.176v199.964c-51.199 9.909-96.71 30.848-136.532 62.824-39.822 31.981-67.317 71.837-82.489 119.577-70.163 7.203-129.42 34.229-177.779 81.064-48.353 46.841-72.533 103.136-72.533 168.893v59.447c0 22.521 8.297 41.659 24.89 57.42 16.593 15.764 36.742 23.649 60.445 23.649h147.909v118.896h557.512v-118.896h147.909c23.706 0 43.854-7.885 60.445-23.649 16.597-15.759 24.89-34.899 24.89-57.42v-59.447c0-65.757-24.174-122.052-72.533-168.893-48.353-46.835-107.616-73.861-177.779-81.064-15.172-47.739-42.666-87.596-82.489-119.577-39.822-31.975-85.335-52.915-136.532-62.824v-199.964h216.18v-81.069h-517.69zM233.245 488.819v224.284h-147.909v-59.447c0-40.537 13.984-75.888 41.958-106.064 27.968-30.176 63.285-49.763 105.952-58.771zM790.756 488.819c42.666 9.008 77.984 28.595 105.957 58.771 27.968 30.176 41.952 65.527 41.952 106.064v59.447h-147.909v-224.284z" />
<glyph unicode="&#xe925;" glyph-name="fill-whatsapp" d="M511.997 938.663c282.777 0 512.003-229.219 512.003-511.996s-229.226-511.996-512.003-511.996c-90.482-0.146-179.369 23.796-257.532 69.372l-254.263-69.372 69.225 254.361c-45.612 78.189-69.581 167.117-69.427 257.635 0 282.777 229.219 511.996 511.996 511.996zM337.508 667.31l-10.236-0.413c-6.629-0.406-13.111-2.143-19.046-5.117-5.554-3.146-10.63-7.078-15.053-11.674-6.144-5.789-9.629-10.807-13.363-15.667-18.941-24.624-29.136-54.854-28.982-85.917 0.106-25.085 6.653-49.507 16.896-72.345 20.938-46.178 55.402-95.078 100.867-140.39 10.954-10.906 21.706-21.859 33.276-32.047 56.494-49.742 123.813-85.61 196.608-104.755l29.086-4.454c9.468-0.516 18.941 0.202 28.464 0.662 14.911 0.768 29.472 4.805 42.653 11.827 6.703 3.454 13.246 7.212 19.606 11.261 0 0 2.206 1.438 6.403 4.608 6.912 5.124 11.165 8.755 16.896 14.746 4.253 4.406 7.939 9.578 10.752 15.466 3.994 8.342 7.987 24.269 9.629 37.526 1.229 10.138 0.866 15.667 0.713 19.102-0.202 5.474-4.762 11.158-9.725 13.565l-29.798 13.363c0 0-44.544 19.402-71.779 31.795-2.851 1.248-5.904 1.954-9.014 2.102-3.502 0.355-7.042-0.036-10.382-1.162-3.336-1.118-6.396-2.942-8.971-5.345-0.259 0.106-3.686-2.813-40.704-47.664-2.126-2.856-5.050-5.014-8.405-6.199-3.36-1.186-6.991-1.346-10.438-0.454-3.336 0.89-6.598 2.021-9.775 3.379-6.353 2.659-8.554 3.686-12.902 5.53-29.386 12.823-56.592 30.149-80.64 51.35-6.451 5.635-12.442 11.779-18.586 17.712-20.146 19.291-37.699 41.117-52.224 64.925l-3.024 4.867c-2.17 3.269-3.926 6.79-5.222 10.493-1.949 7.526 3.12 13.565 3.12 13.565s12.442 13.622 18.23 20.995c5.635 7.171 10.397 14.131 13.469 19.094 6.038 9.732 7.932 19.716 4.762 27.446-14.34 35.021-29.184 69.888-44.446 104.496-3.017 6.864-11.981 11.779-20.122 12.749-2.765 0.307-5.53 0.614-8.294 0.823-6.876 0.338-13.762 0.271-20.63-0.209l10.291 0.413 0.048-0.048z" />
</font>
</defs>
</svg>
